Модераторы: K15, Модераторы, Младшие модераторы

Скрытая красота: История любви, которая питает Землю / Hidden Beauty: A Love Story That Feeds the Earth (2011) BDRip-AVC

Сообщение ViKa » 18 сен 2015, 21:27

  • Постеры
Информация о фильме
Название: Скрытая красота: История любви, которая питает Землю
Оригинальное название: Hidden Beauty: A Love Story That Feeds the Earth
Год выхода: 2011
Жанр: Документальный, видовой, природа, путешествие, туризм, география

Режиссер: Луис Шварцберг

О фильме:
Красивая история любви в опасности. Наше будущее зависит от удивительной истории любви между цветами и фауной, состоящей из пчел, бабочек, птиц и летучих мышей, которые способствуют размножению этих видов. Нежные и изящные цветы сами по себе не символ красоты. Напротив, в их ярких цветах и экзотических ароматах так много чудес, которые привлекают опылителей, опьяненных желанием. Это сложный танец соблазнения, в который вовлечены все эти животные и одна треть наших зерновых культур, без которых мы могли бы выжить... Пыльца же представляет нам незамеченных героев глобальной пищевой цепи. Их фантастические миры полны истории, драмы и красоты. В то же время столь хрупкий и находящихся под угрозой баланса планеты, необходимо теперь активно защищать... Фильм показывает всю красоту окружающей нас природы. Съёмки происходили на Американском континете. (Канада, США, Бразилия, Мексика, Перу...)

Страна: США, Disney nature
Продолжительность: 01:17:21
Перевод: Дублированный
Дата релиза: 19.08.2013

Файл
Кодек: H.264
Качество: BDRip (AVC)
Видео: MPEG-4 AVC, 3000 Кбит/с, 1024x554
Звук: AC3, 2 ch, 192 Кбит/с

Общее
Уникальный идентификатор : 181465443327667891001763600645388830242 (0x8884F91E3C9B0E07AC92A5E4D3ED0622)
Полное имя : E:2Skrytaja.krasota.Istorija.ljubvi.kotoraja.pitaet.Zemlju.2011.x264.BDRip.(AVC).ExKinoRay.mkv
Формат : Matroska
Размер файла : 1,72 Гбайт
Продолжительность : 1 ч. 17 м.
Общий поток : 3192 Кбит/сек
Название фильма : Skrytaja.krasota.Istorija.ljubvi.kotoraja.pitaet.Zemlju.2011.x264.BDRip.(AVC).ExKinoRay
Дата кодирования : UTC 2013-08-19 15:31:55
Программа кодирования : mkvmerge v4.0.0 ('The Stars were mine') сборка от Jun 6 2010 16:18:42
Библиотека кодирования : libebml v1.0.0 + libmatroska v1.0.0

Видео
Идентификатор : 1
Формат : AVC
Формат/Информация : Advanced Video Codec
Профиль формата : High@L4.1
Параметр CABAC формата : Да
Параметр ReFrames формата : 8 кадров
Идентификатор кодека : V_MPEG4/ISO/AVC
Продолжительность : 1 ч. 17 м.
Битрейт : 3000 Кбит/сек
Ширина : 1024 пикс.
Высота : 554 пикс.
Соотношение сторон : 16:9
Частота кадров : 25,000 кадр/сек
Цветовое пространство : YUV
Подвыборка цветности : 4:2:0
Битовая глубина : 8 бит
Тип развёртки : Прогрессивная
Бит/(Пиксели*Кадры) : 0.212
Размер потока : 1,59 Гбайт (92%)
Заголовок : Rip by Enigma-Vladislav71
Библиотека кодирования : x264 core 129 r2245 bc13772
Настройки программы : cabac=1 / ref=8 / deblock=1:-2:-2 / analyse=0x3:0x133 / me=umh / subme=11 / psy=1 / psy_rd=1.00:0.00 / mixed_ref=1 / me_range=48 / chroma_me=1 / trellis=2 / 8x8dct=1 / cqm=0 / deadzone=21,11 / fast_pskip=0 / chroma_qp_offset=-2 / threads=3 / lookahead_threads=1 / sliced_threads=0 / nr=0 / decimate=0 / interlaced=0 / bluray_compat=0 / constrained_intra=0 / bframes=8 / b_pyramid=2 / b_adapt=2 / b_bias=0 / direct=3 / weightb=1 / open_gop=0 / weightp=2 / keyint=250 / keyint_min=25 / scenecut=40 / intra_refresh=0 / rc_lookahead=40 / rc=2pass / mbtree=1 / bitrate=3000 / ratetol=1.0 / qcomp=0.60 / qpmin=10 / qpmax=51 / qpstep=4 / cplxblur=20.0 / qblur=0.5 / ip_ratio=1.40 / aq=2:1.00
Язык : English

Аудио
Идентификатор : 2
Формат : AC-3
Формат/Информация : Audio Coding 3
Расширение режима : CM (complete main)
Идентификатор кодека : A_AC3
Продолжительность : 1 ч. 17 м.
Вид битрейта : Постоянный
Битрейт : 192 Кбит/сек
Каналы : 2 канала
Расположение каналов : Front: L R
Частота : 48,0 КГц
Битовая глубина : 16 бит
Метод сжатия : С потерями
Размер потока : 106 Мбайт (6%)
Язык : Russian









Авторы релиза:
ViKa
 
Раздал: 4.71 ТБ
Скачал: 139.97 ГБ
Ратио: 34.434
Сообщения: 25821
Зарегистрирован: 14 мар 2009, 20:33
  • Торрент
Автор: ViKa Хэш: ---
Добавлен: 18 сен 2015, 21:27 Приватный: Нет (DHT включён)
Статус: Проверен
Размер: 1.72 ГБ (1 851 600 071 байт)
Изменил:
---
Скачали: 0 (Раздающих: 0%)
Причина:
---
Здоровье: 0%
Сидеров: 0 Личеров: 0
Скорость раздачи: 0 байт/сек Скорость скачивания: 0 байт/сек
Последний сидер: Нет Последний личер: Нет
Для скачивания торрента необходимо зарегистрироваться или войти на трекер.

Форум Статистика

Сейчас этот форум просматривают: нет зарегистрированных пользователей и гости: 3

Настройки

Вернуться в TV / Документалки

cron
Ресурс не предоставляет электронные версии произведений, а занимается лишь коллекционированием и каталогизацией ссылок, присылаемых и публикуемых на форуме нашими читателями. Если вы являетесь правообладателем какого-либо представленного материала и не желаете чтобы ссылка на него находилась в нашем каталоге, свяжитесь с нами и мы незамедлительно удалим её. Файлы для обмена на трекере предоставлены пользователями сайта, и администрация не несёт ответственности за их содержание. Просьба не заливать файлы, защищенные авторскими правами, а также файлы нелегального содержания!
tracker_cron