Модераторы: K15, Модераторы, Младшие модераторы

Рыбачьте с нами. Видеоприложение. Выпуск №48. Август (2013) DVDRip

Сообщение ViKa » 18 сен 2015, 21:13

  • Постеры
  • Скриншоты
Страна: Россия
Жанр: Документальный, рыбалка

Тип раздаваемого материала: Видеоурок
Продолжительность: 01:25:05
Год выпуска: 2013
Выпущено: ООО "Фиш-Информ"
Режиссер: Алексей Фадеев
В ролях: Владимир Струев, Алексей Шанин, Игорь Гавриличев, Алексей Вьюнов, А. Королев, Х. Мураками, Михаель Цамматаро
Язык: Русский
Перевод: Не требуется

Описание: Очередной выпуск видеоприложения к журналу "Рыбачьте с нами" за август 2013 года.
Содержание:
Мастер класс с Михаелем Цамматаро.
Рыболовная выставка в Осаке-5 (Мегабасс).
Белорусские шуткари.
На озере Бива с Алексеем Шаниным.
Рыболовный магазин на диване.

Качество: DVDRip
Формат: AVI
Видео кодек: XviD
Аудио кодек: AC3
Видео: XviD, 704x512 (1.375), 25 fps ~ 1930 Kbps avg, 0.214 bit/pixel
Аудио: AC3, 48 KHz 2 ch ~ 192 Kb/s

Общее
Полное имя : Q:TorFRybachte.s.nami.08.2013(48).DVDRip.avi
Формат : AVI
Формат/Информация : Audio Video Interleave
Размер файла : 1,27 Гбайт
Продолжительность : 1 ч. 25 м.
Общий поток : 2133 Кбит/сек
Программа кодирования : FairUse Wizard - http://fairusewizard.com
Библиотека кодирования : The best and REALLY easy backup tool

Видео
Идентификатор : 0
Формат : MPEG-4 Visual
Профиль формата : Advanced Simple@L5
Параметр BVOP формата : 2
Параметр QPel формата : Нет
Параметр GMC формата : Без точки перехода
Параметр матрицы формата : Default (H.263)
Режим смешивания : Сжатый битовый поток
Идентификатор кодека : XVID
Идентификатор кодека/Подсказка : XviD
Продолжительность : 1 ч. 25 м.
Битрейт : 1931 Кбит/сек
Ширина : 704 пикселя
Высота : 512 пикселей
Соотношение сторон : 1,375
Частота кадров : 25,000 кадров/сек
Цветовое пространство : YUV
Субдискретизация насыщенности : 4:2:0
Битовая глубина : 8 бит
Тип развёртки : Прогрессивная
Метод сжатия : С потерями
Бит/(Пиксели*Кадры) : 0.214
Размер потока : 1,15 Гбайт (91%)
Библиотека кодирования : XviD 1.2.1 (UTC 2008-12-04)

Аудио
Идентификатор : 1
Формат : AC-3
Формат/Информация : Audio Coding 3
Расширение режима : CM (complete main)
Идентификатор кодека : 2000
Продолжительность : 1 ч. 25 м.
Вид битрейта : Постоянный
Битрейт : 192 Кбит/сек
Каналы : 2 канала
Расположение каналов : Front: L R
Частота : 48,0 КГц
Битовая глубина : 16 бит
Метод сжатия : С потерями
Размер потока : 117 Мбайт (9%)
Выравнивание : Разделение по промежуткам
Продолжительность промежутка : 40 мс. (1,00 видеокадр)
Время предзагрузки промежутка : 500 мс.






ViKa
 
Раздал: 4.71 ТБ
Скачал: 139.97 ГБ
Ратио: 34.434
Сообщения: 25821
Зарегистрирован: 14 мар 2009, 20:33
  • Торрент
Автор: ViKa Хэш: ---
Добавлен: 18 сен 2015, 21:13 Приватный: Нет (DHT включён)
Статус: Проверен
Размер: 1.27 ГБ (1 361 065 984 байт)
Изменил:
---
Скачали: 0 (Раздающих: 0%)
Причина:
---
Здоровье: 0%
Сидеров: 0 Личеров: 0
Скорость раздачи: 0 байт/сек Скорость скачивания: 0 байт/сек
Последний сидер: Нет Последний личер: Нет
Для скачивания торрента необходимо зарегистрироваться или войти на трекер.

Форум Статистика

Сейчас этот форум просматривают: нет зарегистрированных пользователей и гости: 1

Настройки

Вернуться в TV / Документалки

cron
Ресурс не предоставляет электронные версии произведений, а занимается лишь коллекционированием и каталогизацией ссылок, присылаемых и публикуемых на форуме нашими читателями. Если вы являетесь правообладателем какого-либо представленного материала и не желаете чтобы ссылка на него находилась в нашем каталоге, свяжитесь с нами и мы незамедлительно удалим её. Файлы для обмена на трекере предоставлены пользователями сайта, и администрация не несёт ответственности за их содержание. Просьба не заливать файлы, защищенные авторскими правами, а также файлы нелегального содержания!
tracker_cron