Модераторы: K15, Модераторы, Младшие модераторы

Nat Geo Wild: Превосходство бегемота / The Hippo Supremacy (2012) HDTVRip

Сообщение ViKa » 16 сен 2015, 20:18

  • Постеры
Превосходство бегемота
The Hippo Supremacy





Год выпуска: 2012
Страна: США
Жанр: Документальный

Продолжительность: 00:44:59
Перевод: Профессиональный (дублированный) | Денис Некрасов / АРК·ТВ
Русские субтитры: нет


Режиссер: Каролин Бретт / Caroline Brett

Описание: Бегемоты реки Луангвы в Замбии - одни из самых тяжелых животных на планете, что осложняет жизнь их детенышей.
Zambia's Luangwa river hippos are living the easy life, or so it seems. They are one of the heaviest creatures on Earth and life fluctuates between the serenity of sunbathing to the terrible brutality of dominance and aggression. This struggle puts a young hippo in more danger of being trampled by herd members than being hunted by the neighboring crocodiles. Crocodiles and hippos maintain a symbiotic truce, while male hippo clashes can have tragic consequences. This reality is captured as a mother risks her safety to protect her struggling baby in The Hippo Supremacy.


Автор рипа: Leo.pard
Исходник: HDTV 1080i Спасибо LeXa 84!


Kачество: HDTVRip
Формат: AVI
Видео: XviD, 720x400 (16:9), 1978 Kbps, 25 fps
Аудио: MP2, 192 Kbps, 48 KHz, 2 channels

Сэмпл: http://multi-up.com/896740


General
Complete name : D:Prevoshodstvo.begemota.2012.HDTVRip.avi
Format : AVI
Format/Info : Audio Video Interleave
File size : 702 MiB
Duration : 44mn 59s
Overall bit rate : 2 180 Kbps
Writing application : VirtualDubMod 1.5.10.3 | www.virtualdub-fr.org || (build 2550/release)
Writing library : VirtualDubMod build 2550/release

Video
ID : 0
Format : MPEG-4 Visual
Format profile : Advanced Simple@L5
Format settings, BVOP : 1
Format settings, QPel : No
Format settings, GMC : No warppoints
Format settings, Matrix : Custom
Codec ID : XVID
Codec ID/Hint : XviD
Duration : 44mn 59s
Bit rate : 1 978 Kbps
Width : 720 pixels
Height : 400 pixels
Display aspect ratio : 16:9
Frame rate : 25.000 fps
Color space : YUV
Chroma subsampling : 4:2:0
Bit depth : 8 bits
Scan type : Progressive
Compression mode : Lossy
Bits/(Pixel*Frame) : 0.275
Stream size : 637 MiB (91%)
Writing library : XviD 73

Audio
ID : 1
Format : MPEG Audio
Format version : Version 1
Format profile : Layer 2
Codec ID : 50
Duration : 44mn 59s
Bit rate mode : Constant
Bit rate : 192 Kbps
Channel(s) : 2 channels
Sampling rate : 48.0 KHz
Compression mode : Lossy
Stream size : 61.8 MiB (9%)
Alignment : Aligned on interleaves
Interleave, duration : 40 ms (1.00 video frame)
Interleave, preload duration : 504 ms









ViKa
 
Раздал: 4.71 ТБ
Скачал: 139.97 ГБ
Ратио: 34.434
Сообщения: 25821
Зарегистрирован: 14 мар 2009, 20:33
  • Торрент
Автор: ViKa Хэш: ---
Добавлен: 16 сен 2015, 20:18 Приватный: Нет (DHT включён)
Статус: Проверен
Размер: 701.53 МБ (735 608 832 байт)
Изменил:
---
Скачали: 0 (Раздающих: 0%)
Причина:
---
Здоровье: 0%
Сидеров: 0 Личеров: 0
Скорость раздачи: 0 байт/сек Скорость скачивания: 0 байт/сек
Последний сидер: Нет Последний личер: Нет
Для скачивания торрента необходимо зарегистрироваться или войти на трекер.

Форум Статистика

Сейчас этот форум просматривают: нет зарегистрированных пользователей и гости: 4

Настройки

Вернуться в TV / Документалки

cron
Ресурс не предоставляет электронные версии произведений, а занимается лишь коллекционированием и каталогизацией ссылок, присылаемых и публикуемых на форуме нашими читателями. Если вы являетесь правообладателем какого-либо представленного материала и не желаете чтобы ссылка на него находилась в нашем каталоге, свяжитесь с нами и мы незамедлительно удалим её. Файлы для обмена на трекере предоставлены пользователями сайта, и администрация не несёт ответственности за их содержание. Просьба не заливать файлы, защищенные авторскими правами, а также файлы нелегального содержания!
tracker_cron