Модераторы: K15, Модераторы, Младшие модераторы

King Crimson - Live In Japan (1995) DVD5

Сообщение ViKa » 28 ноя 2015, 16:02

  • Постеры
http://radikal.ru/fp/7630cab1c5a34a02adeb514140a38eed


Название: Live In Japan
Исполнитель: King Crimson
Год: 1995

Жанр: [url=browse.php?tag=Jazz-Rock]Jazz-Rock[/url], [url=browse.php?tag=Art-Rock]Art-Rock[/url], [url=browse.php?tag=Fusion-Rock]Fusion-Rock[/url]

Страна: США
Студия: Woodstock Tapes

Продолжительность: 01:39:36
Формат видео: DVD-5
Формат аудио: AC3 (2 ch)

Официальный сайт




01.Intro (3:01)
02.Vrooom (6:42)
03.Frame By Frame (5:11)
04.Dinosaur (6:56)
05.One Time (5:44)
06.Red (6:14)
07.B'Boom (7:14)
08.Thrak (6:29)
09.Matte Kudasai (3:24)
10.Three Of A Perfect Pair (4:19)
11.Vrooom,Vrooom (4:59)
12.Sex,Sleep,Eat,Drink,Dream (4:43)
13.Stick Duet (2:00)
14.Elefant Talk (4:20)
15.Indiscipline (6:15)
16.The Talking Drum (3:06)
17.Larks' Tongues In Aspic Part II (6:28)
18.People (5:42)
19.Walking On Air (4:46)


Video
ID : 224 (0xE0)
Format : MPEG Video
Format version : Version 2
Format profile : Main@Main
Format settings, BVOP : Yes
Format settings, Matrix : Default
Format settings, GOP : M=3, N=15
Duration : 01hs 39mn 36s
Bit rate mode : Constant
Bit rate : 5 700 Kbps
Width : 720 pixels
Height : 480 pixels
Display aspect ratio : 4:3
Frame rate : 29.970 fps
Standard : NTSC
Color space : YUV
Chroma subsampling : 4:2:0
Bit depth : 8 bits
Scan type : Interlaced
Scan order : Bottom Field First
Compression mode : Lossy
Bits/(Pixel*Frame) : 0.550
Stream size : 970 MiB (95%)

Audio
ID : 189 (0xBD)-128 (0x80)
Format : AC-3
Format/Info : Audio Coding 3
Mode extension : CM (complete main)
Muxing mode : DVD-Video
Duration : 01hs 39mn 36s
Bit rate mode : Constant
Bit rate : 192 Kbps
Channel(s) : 2 channels
Channel positions : Front: L R
Sampling rate : 48.0 KHz
Bit depth : 16 bits
Compression mode : Lossy
Delay relative to video : -668ms
Stream size : 32.7 MiB (3%)
ViKa
 
Раздал: 4.71 ТБ
Скачал: 139.97 ГБ
Ратио: 34.434
Сообщения: 25821
Зарегистрирован: 14 мар 2009, 20:33
  • Торрент
Автор: ViKa Хэш: ---
Добавлен: 28 ноя 2015, 16:02 Приватный: Нет (DHT включён)
Статус: Проверен
Размер: 4.2 ГБ (4 509 808 640 байт)
Изменил:
---
Скачали: 0 (Раздающих: 0%)
Причина:
---
Здоровье: 0%
Сидеров: 0 Личеров: 0
Скорость раздачи: 0 байт/сек Скорость скачивания: 0 байт/сек
Последний сидер: Нет Последний личер: Нет
Для скачивания торрента необходимо зарегистрироваться или войти на трекер.

Форум Статистика

Сейчас этот форум просматривают: нет зарегистрированных пользователей и гости: 1

Настройки

Вернуться в DVD / Фильмы

cron
Ресурс не предоставляет электронные версии произведений, а занимается лишь коллекционированием и каталогизацией ссылок, присылаемых и публикуемых на форуме нашими читателями. Если вы являетесь правообладателем какого-либо представленного материала и не желаете чтобы ссылка на него находилась в нашем каталоге, свяжитесь с нами и мы незамедлительно удалим её. Файлы для обмена на трекере предоставлены пользователями сайта, и администрация не несёт ответственности за их содержание. Просьба не заливать файлы, защищенные авторскими правами, а также файлы нелегального содержания!