Модераторы: K15, Модераторы, Младшие модераторы

Григорий Лепс - Полный Вперед! (2013) DVDRip

Сообщение ViKa » 16 сен 2015, 19:40

  • Постеры
Информация о фильме
Оригинальное название: Полный Вперед!
Год выпуска: 2013
Жанр: Концерт, шансон, поп

Исполнитель: Григорий Лепс

Описание: Полный вперед! LIVE, 2012. Презентация альбома «Полный вперед!» Концерт в КЗ Crocus City Hall 5 декабря 2012 года.

01. Безопасность
02. Берега
03. Люди
04. Он был старше ее
05. Где-то за тучами
06. Ну и что?
07. Танго разбитых сердец
08. Небо
09. Падают листья
10. Что может человек?
11. Я слушал дождь
12. Парус
13. Настоящая женщина
14. Ранняя тишина
15. Я тебя не люблю
16. Уходи красиво
17. Я счастливый
18. Рюмка водки на столе
19. Обернитесь
20. Самый лучший день
21. Запой
22. Водопадом
23. Лондон
24. Се-ля-ви
25. Она



Страна: Россия
Студия: Nikitin
Продолжительность: 02:26:28

Файл
Качество: DVDRip
Видео: XviD, 1664 Кбит/с, 704x400, 25.000 кадр/c
Аудио: Русский (AC3, 6 ch, 448 Кбит/с)
Продолжительность: 02:26:28

Семпл





За исходник спасибо BOBЁR


Общее
Полное имя : D:Mои раздачиG.Leps-Polnyi.vpered.2013.DVDRip-MediaClub.avi
Формат : AVI
Формат/Информация : Audio Video Interleave
Профиль формата : OpenDML
Размер файла : 2,17 Гбайт
Продолжительность : 2 ч. 26 м.
Общий поток : 2124 Кбит/сек
Название фильма : -=MediaClub-kaspr=-
Программа кодирования : VirtualDubMod 1.5.10.2 (build 2542/release)
Библиотека кодирования : VirtualDubMod build 2542/release

Видео
Идентификатор : 0
Формат : MPEG-4 Visual
Профиль формата : Advanced Simple@L5
Параметр BVOP формата : 1
Параметр QPel формата : Нет
Параметр GMC формата : Без точки перехода
Параметр матрицы формата : Выборочная
Идентификатор кодека : XVID
Идентификатор кодека/Подсказка : XviD
Продолжительность : 2 ч. 26 м.
Битрейт : 1664 Кбит/сек
Ширина : 704 пикселя
Высота : 400 пикселей
Соотношение сторон : 16:9
Частота кадров : 25,000 кадров/сек
Цветовое пространство : YUV
Субдискретизация насыщенности : 4:2:0
Битовая глубина : 8 бит
Тип развёртки : Прогрессивная
Метод сжатия : С потерями
Бит/(Пиксели*Кадры) : 0.236
Размер потока : 1,70 Гбайт (78%)
Библиотека кодирования : XviD 73

Аудио
Идентификатор : 1
Формат : AC-3
Формат/Информация : Audio Coding 3
Расширение режима : CM (complete main)
Параметр Endianness формата : Big
Идентификатор кодека : 2000
Продолжительность : 2 ч. 26 м.
Вид битрейта : Постоянный
Битрейт : 448 Кбит/сек
Каналы : 6 каналов
Расположение каналов : Front: L C R, Side: L R, LFE
Частота : 48,0 КГц
Битовая глубина : 16 бит
Метод сжатия : С потерями
Размер потока : 469 Мбайт (21%)
Выравнивание : Разделение по промежуткам
Продолжительность промежутка : 40 мс. (1,00 видеокадр)
Время предзагрузки промежутка : 500 мс.

ViKa
 
Раздал: 4.71 ТБ
Скачал: 139.97 ГБ
Ратио: 34.434
Сообщения: 25821
Зарегистрирован: 14 мар 2009, 20:33
  • Торрент
Автор: ViKa Хэш: ---
Добавлен: 16 сен 2015, 19:40 Приватный: Нет (DHT включён)
Статус: Проверен
Размер: 2.17 ГБ (2 333 603 840 байт)
Изменил:
---
Скачали: 0 (Раздающих: 0%)
Причина:
---
Здоровье: 0%
Сидеров: 0 Личеров: 0
Скорость раздачи: 0 байт/сек Скорость скачивания: 0 байт/сек
Последний сидер: Нет Последний личер: Нет
Для скачивания торрента необходимо зарегистрироваться или войти на трекер.

Форум Статистика

Сейчас этот форум просматривают: Google [Bot] и гости: 2

Настройки

Вернуться в DVD / Фильмы

cron
Ресурс не предоставляет электронные версии произведений, а занимается лишь коллекционированием и каталогизацией ссылок, присылаемых и публикуемых на форуме нашими читателями. Если вы являетесь правообладателем какого-либо представленного материала и не желаете чтобы ссылка на него находилась в нашем каталоге, свяжитесь с нами и мы незамедлительно удалим её. Файлы для обмена на трекере предоставлены пользователями сайта, и администрация не несёт ответственности за их содержание. Просьба не заливать файлы, защищенные авторскими правами, а также файлы нелегального содержания!