Модераторы: K15, Модераторы, Младшие модераторы

Футурама / Futurama [S01] (Питер Аванзино и др.) [1999, Мультфильм, комедия, семейный, WEBRip-HEVC 1080p / 2x2]

Сообщение 7Max7 » 14 июл 2020, 21:47

Футурама / Futurama
[S01]


#777

Информация о фильме
Название: Футурама
Оригинальное название: Futurama
Год выхода: 1999
Страна: США
Студия: 20th Century Fox Television, Gracie Films
Продолжительность: ~ 00:22:00
Перевод: Профессиональный (многоголосый, закадровый) Канал 2х2
Жанр: Мультфильм, комедия, семейный

Режиссер: Питер Аванзино, Брэт Хааланд, Грегг Ванцо

В ролях:
Билли Уэст, Кэти Сагал, Джон Ди Маджио, Тресс МакНилл, Фил ЛаМарр, Лорен Том, Морис ЛаМарш, Дэвид Херман, Фрэнк Уэлкер, Кэт Суси

О фильме:
Сериал начинается с того, что разносчик пиццы из Нью-Йорка Филипп Дж.Фрай случайно был заморожен в криогенной камере ровно в 00 часов 00 минут 00 секунд 1 января 2000 года и разморожен 999 лет и 364 дня спустя — 31 декабря 2999 года. Фрай оказывается в далёком будущем в городе Новый Нью-Йорк.



Список эпизодов мультсериала «Футурама»:
Оригинальные 72 серии "Футурамы" были выпущены в виде четырех производственных сезонов.
При показе на телеканале FOX, серии до второго сезона соответствовали производственным блокам,
но начиная со второго сезона их стали показывать в произвольном порядке, поэтому и получилось пять телевизионных сезонов.

В раздаче серии идут в том порядке, в котором они были созданы.
Производственный порядок лучше отражает замысел создателей и помогает избежать потенциальных сценарных непоследовательностей и нестыковок в сюжетной линии.

https://en.wikipedia.org/wiki/List_of_F ... Home_media

О раздаче:
Улучшенная с помощью искусственного интеллекта версия "Футурама" от JoyBell
- Главы из DVD
- Оригинальная нетронутая аудиодорожка
- Комментарии создателей
- Английские субтитры

Представляю Вам, одну из лучших в мире копию Futurama Сезон 1. -- JoyBell



Файл
Кодек: 1440x1080, 23.976 fps, HEVC, ~1200 kbps, 10bit
Качество: WEBRip-HEVC 1080p
Звук: AC3 / 2.0 / 48 kHz / 192 kbps / 16 bit | Канал 2x2
Звук: AC3 / 2.0 / 48 kHz / 192 kbps / 16 bit | Английский
Звук: AAC / 2.0 / 48 kHz / 44 kbps / 16 bit | Комментарии создателей
Субтитры: Английские


General
Unique ID : 214904510493736338743366111066346900731 (0xA1AD1A6AF259637BB094EE93246E4CFB)
Complete name : O:VideoFuturama (1080p HEVC)Season 101 - Space Pilot 3000.mkv
Format : Matroska
Format version : Version 4
File size : 266 MiB
Duration : 23 min 19 s
Overall bit rate : 1 594 kb/s
Movie name : 001 - Space Pilot 3000
Encoded date : UTC 2020-06-20 20:14:44
Writing application : mkvmerge v8.3.0 ('Over the Horizon') 64bit
Writing library : libebml v1.3.1 + libmatroska v1.4.2

Video
ID : 1
Format : HEVC
Format/Info : High Efficiency Video Coding
Format profile : Main 10@L4@Main
Codec ID : V_MPEGH/ISO/HEVC
Duration : 22 min 44 s
Bit rate : 1 201 kb/s
Width : 1 440 pixels
Height : 1 080 pixels
Display aspect ratio : 4:3
Frame rate mode : Constant
Frame rate : 23.976 (24000/1001) FPS
Color space : YUV
Chroma subsampling : 4:2:0
Bit depth : 10 bits
Bits/(Pixel*Frame) : 0.032
Stream size : 195 MiB (73%)
Writing library : x265 3.4+6-g73f96ff39:[Windows][GCC 11.0.0][64 bit] 10bit
Encoding settings : cpuid=1111039 / frame-threads=3 / numa-pools=12 / wpp / no-pmode / no-pme / no-psnr / ssim / log-level=2 / input-csp=1 / input-res=1440x1080 / interlace=0 / total-frames=32706 / level-idc=0 / high-tier=1 / uhd-bd=0 / ref=4 / no-allow-non-conformance / no-repeat-headers / annexb / no-aud / no-hrd / info / hash=0 / no-temporal-layers / open-gop / min-keyint=23 / keyint=250 / gop-lookahead=0 / bframes=8 / b-adapt=2 / b-pyramid / bframe-bias=40 / rc-lookahead=80 / lookahead-slices=4 / scenecut=40 / hist-scenecut=0 / radl=0 / no-splice / no-intra-refresh / ctu=64 / min-cu-size=8 / rect / no-amp / max-tu-size=32 / tu-inter-depth=1 / tu-intra-depth=1 / limit-tu=0 / rdoq-level=2 / dynamic-rd=0.00 / ssim-rd / signhide / no-tskip / nr-intra=0 / nr-inter=0 / constrained-intra / strong-intra-smoothing / max-merge=5 / limit-refs=3 / limit-modes / me=3 / subme=7 / merange=57 / temporal-mvp / no-frame-dup / no-hme / weightp / no-weightb / no-analyze-src-pics / deblock=0:0 / sao / no-sao-non-deblock / rd=4 / selective-sao=4 / early-skip / rskip / no-fast-intra / no-tskip-fast / no-cu-lossless / no-b-intra / splitrd-skip / rdpenalty=0 / psy-rd=3.50 / psy-rdoq=2.50 / no-rd-refine / no-lossless / cbqpoffs=0 / crqpoffs=0 / rc=abr / bitrate=1200 / qcomp=0.60 / qpstep=4 / stats-write=0 / stats-read=2 / cplxblur=20.0 / qblur=0.5 / ipratio=1.40 / pbratio=1.30 / aq-mode=3 / aq-strength=0.40 / cutree / zone-count=0 / no-strict-cbr / qg-size=32 / no-rc-grain / qpmax=69 / qpmin=0 / no-const-vbv / sar=0 / overscan=0 / videoformat=5 / range=0 / colorprim=1 / transfer=1 / colormatrix=1 / chromaloc=0 / display-window=0 / cll=0,0 / min-luma=0 / max-luma=1023 / log2-max-poc-lsb=8 / vui-timing-info / vui-hrd-info / slices=1 / no-opt-qp-pps / no-opt-ref-list-length-pps / multi-pass-opt-rps / scenecut-bias=0.05 / hist-threshold=0.01 / no-opt-cu-delta-qp / no-aq-motion / no-hdr10 / no-hdr10-opt / no-dhdr10-opt / no-idr-recovery-sei / analysis-load / analysis-reuse-level=10 / analysis-save-reuse-level=0 / analysis-load-reuse-level=10 / scale-factor=0 / refine-intra=0 / refine-inter=0 / refine-mv=1 / refine-ctu-distortion=0 / limit-sao / ctu-info=0 / no-lowpass-dct / refine-analysis-type=0 / copy-pic=1 / max-ausize-factor=1.0 / no-dynamic-refine / no-single-sei / no-hevc-aq / no-svt / no-field / qp-adaptation-range=1.00 / no-scenecut-aware-qpconformance-window-offsets / right=0 / bottom=0 / decoder-max-rate=0
Default : Yes
Forced : No
Color range : Limited
Color primaries : BT.709
Transfer characteristics : BT.709
Matrix coefficients : BT.709

Audio #1
ID : 2
Format : AC-3
Format/Info : Audio Coding 3
Commercial name : Dolby Digital
Codec ID : A_AC3
Duration : 22 min 39 s
Bit rate mode : Constant
Bit rate : 192 kb/s
Channel(s) : 2 channels
Channel layout : L R
Sampling rate : 48.0 kHz
Frame rate : 31.250 FPS (1536 SPF)
Compression mode : Lossy
Stream size : 31.1 MiB (12%)
Language : Russian
Service kind : Complete Main
Default : Yes
Forced : Yes

Audio #2
ID : 3
Format : AC-3
Format/Info : Audio Coding 3
Commercial name : Dolby Digital
Codec ID : A_AC3
Duration : 22 min 44 s
Bit rate mode : Constant
Bit rate : 192 kb/s
Channel(s) : 2 channels
Channel layout : L R
Sampling rate : 48.0 kHz
Frame rate : 31.250 FPS (1536 SPF)
Compression mode : Lossy
Stream size : 31.2 MiB (12%)
Title : Stereo
Language : English
Service kind : Complete Main
Default : No
Forced : No

Audio #3
ID : 4
Format : AAC LC SBR
Format/Info : Advanced Audio Codec Low Complexity with Spectral Band Replication
Commercial name : HE-AAC
Format settings : Explicit
Codec ID : A_AAC-2
Duration : 23 min 18 s
Bit rate : 44.2 kb/s
Channel(s) : 2 channels
Channel layout : L R
Sampling rate : 48.0 kHz
Frame rate : 23.438 FPS (2048 SPF)
Compression mode : Lossy
Delay relative to video : 31 ms
Stream size : 7.38 MiB (3%)
Title : Commentary
Language : English
Default : No
Forced : No

Text #1
ID : 5
Format : VobSub
Muxing mode : zlib
Codec ID : S_VOBSUB
Codec ID/Info : Picture based subtitle format used on DVDs
Duration : 21 min 38 s
Bit rate : 2 396 b/s
Count of elements : 437
Stream size : 380 KiB (0%)
Language : English
Default : No
Forced : No

Text #2
ID : 6
Format : UTF-8
Codec ID : S_TEXT/UTF8
Codec ID/Info : UTF-8 Plain Text
Duration : 21 min 39 s
Bit rate : 77 b/s
Count of elements : 435
Stream size : 12.3 KiB (0%)
Language : English
Default : No
Forced : No

Menu
00:00:00.000 : en:Chapter 01
00:03:35.415 : en:Chapter 02
00:09:11.150 : en:Chapter 03
00:15:10.376 : en:Chapter 04
00:21:55.547 : en:Chapter 05
7Max7
Аватара пользователя
 
Раздал: 491.08 ГБ
Скачал: 4.25 ГБ
Ратио: 115.495
Сообщения: 481
Зарегистрирован: 14 фев 2014, 18:28
  • Торрент
Автор: 7Max7 Хэш: ---
Добавлен: 14 июл 2020, 21:47 Приватный: Нет (DHT включён)
Статус: Проверен
Размер: 3.34 ГБ (3 589 522 019 байт)
Изменил:
---
Скачали: 22 (Раздающих: 0%)
Причина:
---
Здоровье: 100%
Сидеров: 4 Личеров: 0
Скорость раздачи: 0 байт/сек Скорость скачивания: 0 байт/сек
Последний сидер: 17 дней 16 часов 27 минут 6 секунд назад Последний личер: Нет
Для скачивания торрента необходимо зарегистрироваться или войти на трекер.

Форум Статистика

Сейчас этот форум просматривают: нет зарегистрированных пользователей и гости: 4

Настройки

Вернуться в Мультфильмы

cron
Ресурс не предоставляет электронные версии произведений, а занимается лишь коллекционированием и каталогизацией ссылок, присылаемых и публикуемых на форуме нашими читателями. Если вы являетесь правообладателем какого-либо представленного материала и не желаете чтобы ссылка на него находилась в нашем каталоге, свяжитесь с нами и мы незамедлительно удалим её. Файлы для обмена на трекере предоставлены пользователями сайта, и администрация не несёт ответственности за их содержание. Просьба не заливать файлы, защищенные авторскими правами, а также файлы нелегального содержания!
tracker_cron